Home » Tag cloud » Pitbull
Category: Movie
Pitbull Last Dog (2018) 720p BluRay x264-SPRiNTER




Pitbull Last Dog (2018) 720p BluRay x264-SPRiNTER
Language(s): English
02:03:00 | 1280x536 @ 6060 kb/s | 23.98 fps(r) | DTS, 44100 Hz, 6CH, 1509 kb/s | 6.55 GB
Genre(s): Action, Crime, Drama
IMDB



Download Now
Category: Movie
Pitbull Last Dog (2018) 1080p BluRay x264-SPRiNTER




Pitbull Last Dog (2018) 1080p BluRay x264-SPRiNTER
Language(s): Polish
02:03:00 | 1920x808 @ 9850 kb/s | 23.98 fps(r) | AC3, 44100 Hz, stereo, 1509 kb/s | 9.83 GB
Genre(s): Action, Crime, Drama
IMDB


Download Now
Category: Music
Pitbull - Greatest Hits (2017) (FLAC)
2017 | FLAC (tracks) | 00:49:07 | 112 MB
Reggaeton, Pop, Hip-Hop, Dance | Label: Mr.305/Polo Grounds Music/RCA Records
Download Now
Category: Music
Cris Cab - All of the Girls (feat. Pitbull) - Single [iTunes Plus AAC M4A]

Tracklist:
1. All of the Girls (feat. Pitbull)
Release Name: Cris Cab - All of the Girls (feat. Pitbull) - Single Tunes Plus AAC M4A
Size: 7.20 MB
Genres: Pop , Music
Label: N/A
- -
Download Now
Read More
Category: Movie
Pitbull Tough Women 2016 BDRip x264-ROVERS
Release Name:Pitbull.Tough.Women.2016.RERIP.BDRip.x264-ROVERS
Size:875 MB


Description: Following on from the original ‘Pitbull', ‘Pitbull: Tough Women' sees two police departments in Warsaw forced to work together against the most powerful criminal organisation in Poland. The members of the Mokotowska group are responsible for a string of kidnappings and murders throughout Poland, and have the police force in their sights. Mayan, the new chief of police and a veteran of undercover work, joins forces with the heroes of the original ‘Pitbull' to fight back. ‘Pitbull: Nowe Porzadki' is a thrilling, hard-edged look at the realities of the police force and crime in modern Poland.
Download Now
Read More
Category: Movie
Pitbull Tough Women (2016) 870MB BDRip x264 ESUBS-ROVERS

Pitbull Tough Women (2016) 870MB BDRip x264 ESUBS-ROVERS

IMDb: http://www.imdb.com/title/tt6212346/


Format : Matroska
Format version : Version 4 / Version 2
File size : 866 MiB
Duration : 2 h 15 min
Overall bit rate : 897 kb/s

Video
ID : 1
Format : AVC
Format/Info : Advanced Video Codec
Format profile : [email protected]
Format settings, CABAC : Yes
Format settings, ReFrames : 5 frames
Codec ID : V_MPEG4/ISO/AVC
Duration : 2 h 14 min
Bit rate : 784 kb/s
Width : 720 pixels
Height : 304 pixels
Display aspect ratio : 2.35:1
Frame rate mode : Constant
Frame rate : 24.000 FPS
Color space : YUV
Chroma subsampling : 4:2:0
Bit depth : 8 bits
Scan type : Progressive
Bits/(Pixel*Frame) : 0.149
Stream size : 757 MiB (87%)
Title : X264
Writing library : x264 core 148 r2744 b97ae06
Language : English
Default : Yes
Forced : No
Color range : Limited
Matrix coefficients : BT.709

Audio
ID : 2
Format : AAC
Format/Info : Advanced Audio Codec
Format profile : LC
Codec ID : A_AAC
Duration : 2 h 15 min
Bit rate : 111 kb/s
Channel(s) : 2 channels
Channel positions : Front: L R
Sampling rate : 48.0 kHz
Frame rate : 46.875 FPS (1024 spf)
Compression mode : Lossy
Stream size : 107 MiB (12%)
Language : Polish
Default : Yes
Forced : No

Text
ID : 3
Format : UTF-8
Codec ID : S_TEXT/UTF8
Codec ID/Info : UTF-8 Plain Text
Duration : 2 h 9 min
Bit rate : 49 b/s
Count of elements : 1515
Stream size : 47.1 KiB (0%)
Title : English-Forced
Language : English
Default : Yes
Forced : Yes

Menu
00:00:00.000 : en:00:00:00.000
00:08:00.333 : en:00:08:00.333
00:16:24.875 : en:00:16:24.875
00:26:23.833 : en:00:26:23.833
00:33:22.500 : en:00:33:22.500
00:40:26.167 : en:00:40:26.167
00:51:02.792 : en:00:51:02.792
00:58:40.875 : en:00:58:40.875
01:08:06.917 : en:01:08:06.917
01:16:48.875 : en:01:16:48.875
01:26:05.208 : en:01:26:05.208
01:36:06.292 : en:01:36:06.292
01:42:37.750 : en:01:42:37.750
01:51:56.917 : en:01:51:56.917
02:00:54.792 : en:02:00:54.792
02:09:03.750 : en:02:09:03.750


Screenshots:-

Pitbull Tough Women (2016) 870MB BDRip x264 ESUBS-ROVERS Pitbull Tough Women (2016) 870MB BDRip x264 ESUBS-ROVERS Pitbull Tough Women (2016) 870MB BDRip x264 ESUBS-ROVERS Pitbull Tough Women (2016) 870MB BDRip x264 ESUBS-ROVERS Pitbull Tough Women (2016) 870MB BDRip x264 ESUBS-ROVERS Pitbull Tough Women (2016) 870MB BDRip x264 ESUBS-ROVERS Pitbull Tough Women (2016) 870MB BDRip x264 ESUBS-ROVERS


Watch Online/Download :-


https://thevideo.me/eymmbtmi0m2a
http://vidup.me/g8avjvfks617
https://www.flashx.tv/u9jn970x4d67.html
https://estream.to/jg2bbrgfcsyw.html


Single Fast Direct Download :-

https://clicknupload.link/opjeoaq81fmf
https://filescdn.com/97uc3fl4d7ww
http://rapidgator.net/file/4f390843a224ca7012e43260566a86f1/Pitbull.Tough.Women.2016.mkv.html
Download Now
Read More
Category: Music
Austin Mahone - Lady (feat. Pitbull) [The Remixes] - EP [iTunes Plus AAC M4A]


Release Name: Austin Mahone - Lady (feat. Pitbull) [The Remixes] - EP Tunes Plus AAC M4A
Size:40.4 MB
Genres:Pop, Music
Label:℗ 2017 A.M. Music LLC / Mr. 305
---
Download Now
Category: Music
Pitbull & J Balvin - Hey Ma (feat. Camila Cabello) [Spanish Version] - Single [iTunes Plus AAC M4A]

Tracklist:
12. Hey Ma (feat. Camila Cabello) [Spanish Version]
Release Name:Pitbull & J Balvin - Hey Ma (feat. Camila Cabello) [Spanish Version] - Single Tunes Plus AAC M4A
Size:6.65 MB
Genres: Soundtrack, Music
Label:℗ 2017 This compilation 2017 Artist Partner Group
---
Download Now
Category: Music
Pitbull - Climate Change (2017)

Pitbull - Climate Change (2017)
Mp3 CBR 320 kbps | Dancehall / Pop / Hip-Hop | 00:44:24 | 1CD | 102 Mb
Download Now
Category: TV Show
Bellator 172 Thomson vs Pitbull HDTV x264-Ebi

Bellator 172 Thomson vs Pitbull HDTV x264-Ebi
Language: English
Release Date: 2017-02-19 (UK)
Air Date: 2017-02-18 (US)
Source : HDTV
Container: MP4
Video: x264, 1446Kbps, 29,970fps, 712x400, 16:9
Audio: AAC, 160Kbps, 48KHz, 2ch
Size: 1.45 GB
Runtime: 2h 23mn 44s
Genre: TV Show / MMA
Download Now
Read More

Sitemap